#TITLE:crushcrushcrush;
#SUBTITLE:;
#ARTIST:Paramore;
#TITLETRANSLIT:;
#SUBTITLETRANSLIT:;
#ARTISTTRANSLIT:;
#CREDIT:;
#BANNER:CrushCrushCrush-bn.jpg;
#BACKGROUND:CrushCrushCrush-bg.jpg;
#LYRICSPATH:;
#CDTITLE:;
#MUSIC:crushcrushcrush.mp3;
#OFFSET:0.080;
#SAMPLESTART:100.000;
#SAMPLELENGTH:12.000;
#SELECTABLE:YES;
#BPMS:0.000=137.000,48.375=274.000,48.625=137.000,88.500=274.000,88.750=137.000,96.625=274.000,96.875=137.000,135.750=68.500,136.125=274.000,136.875=137.000,184.750=274.000,185.000=137.000,224.875=274.000,225.125=137.000,233.000=274.000,233.250=137.000;
#STOPS:;
#BGCHANGES:;
// cache tags:
#FIRSTBEAT:0.500;
#LASTBEAT:425.250;
#SONGFILENAME:Songs/Music V.I.P ^_^/crushcrushcrush/crushcrushcrush.sm;
#HASMUSIC:1;
#HASBANNER:1;
#MUSICLENGTH:187.611;
// end cache tags

//---------------dance-single - ----------------
#NOTES:
     dance-single:
     :
     Hard:
     10:
     0.924,1.000,1.000,0.043,1.000,792.000,380.000,8.000,0.000,67.000:
0000
0100
1000
0100
0010
0001
0010
0100
,
1000
0100
0010
0001
0010
0100
1000
0100
,
0010
0001
0010
0100
1000
0100
0010
0001
,
0010
0000
0100
0000
1000
0000
0100
0000
0010
0000
0001
0000
0101
1010
0101
1010
,
0101
1010
0101
0000
1000
0000
0101
0000
1000
0000
1100
0000
0001
0000
0110
0000
,
0001
0101
0000
1001
0010
0101
0001
0110
,
0010
0110
0100
0110
1000
0110
0010
1001
,
0100
1001
0010
1100
0001
1100
0010
1100
,
0001
1010
1000
0101
0100
1010
0100
1010
,
0010
0101
0010
0101
0100
1010
0100
1010
,
1000
0101
1000
0101
0001
1010
0001
1010
,
0100
0101
0100
0101
0010
1010
0010
1010
,
0010
0000
0000
0000
0000
1111
0000
0000
0000
0000
0000
0000
0000
1001
0000
0000
0000
0000
0000
0000
0000
1001
0000
0000
0000
0000
0000
0000
0000
1010
0000
0000
,
0000
0000
0000
0000
0000
1010
0000
0000
0000
0000
0000
0000
0000
0101
0000
0000
0000
0000
0000
0000
0000
1010
0000
0000
0000
0000
0000
0000
0000
1010
0000
0000
,
0000
0000
0000
0000
0000
0101
0000
0000
0000
0000
0000
0000
0000
0101
0000
0000
0000
0000
0000
0000
0000
0101
0000
0000
0000
0000
0000
0000
0000
1100
0000
0000
,
0000
0000
0000
0000
0000
0110
0000
0000
0000
0000
0000
0000
0000
0110
0000
0000
0000
0000
0000
0000
0000
0110
0000
0000
0000
0000
0000
0000
0000
0110
0000
0000
,
0000
0000
0000
0000
0000
0011
0000
0000
0000
0000
0000
0000
0000
0011
0000
0000
0000
0000
0000
0000
0000
0011
0000
0000
0000
0000
0000
0000
0000
0011
0000
0000
,
0000
0000
0000
0000
0000
0011
0000
0000
0000
0000
0000
0000
0000
1100
0000
0000
0000
0000
0000
0000
0000
1100
0000
0000
0000
0000
0000
0000
0000
1100
0000
0000
,
0000
0000
0000
0000
0000
1100
0000
0000
0000
0000
0000
0000
0000
0011
0000
0000
0000
0000
0000
0000
0000
0011
0000
0000
0000
0000
0000
0000
0000
0011
0000
0000
,
0000
0000
0000
0000
0000
1100
0000
0000
0000
0000
0000
0000
0000
1100
0000
0000
0000
0000
0000
0000
0000
1100
0000
0000
0000
0000
0000
0000
0000
1100
0000
0000
,
0000
0000
0000
0000
0000
0011
0000
0100
0000
1000
0000
0100
0000
0011
0000
0100
0000
0010
0000
0001
0000
1100
0000
0010
0000
0001
0000
0010
0000
1100
0000
0010
,
0000
0001
0000
0010
0000
1100
0000
0010
0000
0001
0000
0010
0000
1001
0000
0100
0000
0010
0000
0100
0000
1010
0000
0000
0000
0000
0000
0000
0000
0000
0000
0000
,
0000
0000
0000
1111
0000
0000
0000
0011
0000
0000
0000
0011
0000
0000
0000
0011
,
0000
0000
0000
0110
0000
0000
0000
1100
0000
0000
0000
1100
0000
0000
0000
1100
,
0000
0000
0000
0000
0000
0000
0000
1111
0000
0000
0000
0000
0000
0000
0000
0011
0000
0000
0000
0000
0000
0000
0000
0011
0000
0000
0000
0000
0000
0000
0000
0011
,
0000
0000
0000
0000
0000
0000
0000
0011
0000
0000
0000
0000
0000
0000
0000
0011
0000
0000
0000
0000
0000
0000
0000
0100
0000
0010
0000
1001
0000
0100
0000
0010
,
0000
0001
0000
0010
0000
0100
0000
1010
0000
0000
0000
0010
0000
0000
0000
0110
0000
0000
0000
0100
0000
0000
0000
0110
0000
0000
0000
0000
0000
0000
0000
0110
,
0000
0000
0000
0000
0000
0000
0000
0000
0000
0000
0000
0001
0000
0000
0000
0010
0000
0000
0000
0100
0000
0000
0000
0101
0000
0000
0000
0010
0000
0000
0000
1010
,
0000
0000
0000
0100
0000
0000
0000
0011
0000
0000
0000
0001
0000
0000
0000
0000
0000
0000
0000
1000
0000
0000
0000
0001
0000
0000
0000
0000
0000
0000
0000
0100
,
0000
0000
0000
0000
0000
0000
0000
0001
0000
0000
0000
0010
0000
0000
0000
1000
0000
0000
0000
0100
0000
0000
0000
0001
0000
0000
0000
0010
0000
0000
0000
1000
,
0000
0000
0000
0000
0000
0000
0000
0001
0000
0000
0000
0010
0000
0000
0000
0000
0000
0000
0000
0100
0000
0000
0000
1000
0000
0000
0000
0000
0000
0000
0000
0100
,
0000
0000
0000
0000
0000
0000
0000
0001
0000
0000
0000
0010
0000
0000
0000
0100
0000
0000
0000
0001
0000
0000
0000
1000
0000
0000
0000
0001
0000
0000
0000
1010
,
0000
1000
0000
1001
0000
1000
0000
0011
0000
0000
0000
1000
0000
0000
0000
0101
0000
0000
0000
1000
0000
0000
0000
0101
0000
0000
0000
1000
0000
0000
0000
0110
,
0000
0000
0000
0010
0000
0000
0000
0101
0000
0000
0000
0100
0000
0000
0000
0011
0000
0000
0000
0001
0000
0000
0000
1010
0000
0000
0000
0000
0000
0200
0000
0000
,
0000
0000
0000
0000
0000
0000
0000
1310
0000
0000
0000
0110
0000
0000
0000
0101
0000
0000
0000
0110
0000
0000
0000
1010
0000
0000
0000
0101
0000
0000
0000
0110
,
0000
0000
0000
1001
0000
0000
0000
1010
0000
0000
0000
0101
0000
0000
0000
0011
0000
0000
0000
0110
0000
0000
0000
1100
0000
0000
0000
0110
0000
0000
0000
0011
,
0000
0000
0000
1010
0000
0000
0000
0011
0000
0000
0000
0110
0000
0000
0000
1100
0000
0000
0000
0101
0000
0000
0000
1100
0000
0000
0000
0011
0000
0000
0000
1100
,
0000
0000
0000
1010
0000
0000
0000
0110
0000
0000
0000
0101
0000
0000
0000
0110
0000
0000
0000
1100
0000
0000
0000
0110
0000
1000
0000
0001
0000
0100
0010
1000
,
0001
0100
0010
1000
0001
0010
0000
0101
0000
0000
0000
0001
0000
0000
0000
0110
0000
0000
0000
1000
0000
0000
0000
0110
0000
0000
0000
0001
0000
0000
0000
1100
,
0000
0000
0000
1000
0000
0000
0000
0011
0000
0000
0000
1000
0000
0000
0000
0011
0000
0000
0000
0001
0000
0000
0000
1100
0000
0000
0000
0001
0000
0000
0000
1100
,
0000
0000
0000
0100
0000
0000
0000
1010
0000
0000
0000
0100
0000
0000
0000
1010
0000
0000
0000
0100
0000
0000
0000
1010
0000
0000
0000
0100
0000
0000
0000
1100
,
0000
0000
0000
0100
0000
0000
0000
0101
0000
0000
0000
1000
0000
0000
0000
0110
0000
0000
0000
1000
0000
0000
0000
0110
0000
0000
0000
1000
0000
0000
0000
0101
,
0000
0000
0000
0001
0000
0000
0000
0110
0000
0000
0000
0010
0000
0000
0000
0101
0000
0000
0000
1000
0000
0000
0000
0110
0000
0000
0000
0010
0000
0000
0000
0101
,
0000
0000
0000
0100
0000
0000
0000
0110
0000
0000
0000
0100
0000
0000
0000
1010
0000
0000
0000
0100
0000
0000
0000
1010
0000
0000
0000
0100
0000
0000
0000
0101
,
0000
0000
0000
0010
0000
0000
0000
1010
0000
0000
0000
0100
0000
0000
0000
1100
0000
0000
0000
0100
0000
0000
0000
0101
0000
0000
0000
0010
0000
0000
0000
0011
,
0000
0000
0000
0010
0000
0000
0000
0110
0000
0000
0000
1000
0000
0000
0000
1100
0000
0000
0000
0010
0000
0000
0000
0101
0000
0000
0000
0010
0000
0000
0000
0011
,
0000
1111
1001
1010
,
1010
0101
1010
0101
,
0110
0101
0110
0101
,
1010
0101
1010
1010
,
0101
0110
0110
1001
,
1001
1001
0110
0110
,
0101
0101
0110
0110
,
0011
0110
1100
0011
,
1100
0000
0000
0000
0110
0001
0010
0100
1100
0001
0010
0100
1100
0010
0100
0010
,
1100
0001
0010
0001
1100
0010
0001
0010
0110
1000
0100
1000
0011
0100
1000
0100
,
0011
0000
0000
0000
0000
0000
0000
0000
0000
1111
0000
0000
0000
0000
0000
0000
0000
0110
0000
0000
0000
0000
0000
0000
0000
1100
0000
0000
0000
0000
0000
0000
,
0000
0011
0000
0000
0000
0000
0000
0000
0000
1100
0000
0000
0000
0000
0000
0000
0000
0011
0000
0000
0000
0000
0000
0000
0000
1100
0000
0000
0000
0000
0000
0000
,
0000
0110
0000
0000
0000
0000
0000
0000
0000
0000
1111
0000
0000
0000
0000
0000
0000
0000
0101
0000
0000
0000
0000
0000
0000
0000
1010
0000
0000
0000
0000
0000
,
0000
0101
0000
0000
0000
1010
0000
0000
0000
1100
0000
0000
0000
0100
0010
1001
,
0100
0010
0001
0010
0100
1010
0000
0100
0000
0110
0000
0100
0000
0110
0000
0000
,
0000
0110
0000
0000
0000
0000
0000
0001
0000
0010
0000
0100
0000
0101
0000
0010
,
0000
1010
0000
0100
0000
0011
0000
0001
0000
0000
0000
1000
0000
0001
0000
0000
,
0000
0100
0000
0000
0000
0001
0000
0010
0000
1000
0000
0100
0000
0001
0000
0010
,
0000
1000
0000
0000
0000
0001
0000
0010
0000
0000
0000
0100
0000
1000
0000
0000
,
0000
0100
0000
0000
0000
0001
0000
0010
0000
0100
0000
0001
0000
0100
0100
0100
,
0000
1000
0000
0001
0000
0011
0000
0010
0000
1100
0000
0100
0000
0101
0000
0010
,
0000
0101
0000
1000
0000
0110
0000
0100
0000
0110
0000
0001
0000
2100
0000
0000
,
0000
0110
0000
0000
0000
3110
0000
0000
0000
0110
0000
0000
0000
0110
0000
0000
,
0000
0011
0000
0000
0000
0011
0000
0000
0000
0011
0000
0000
0000
0011
0000
1000
,
0000
0011
0000
0100
0000
0011
0000
0000
0000
0110
0000
0000
0000
0110
0000
0000
,
0000
0110
0000
0000
0000
0110
0000
0000
0000
1100
0000
0000
0000
1100
0000
0010
,
0000
1100
0000
0001
0000
0111
0000
0000
0000
0000
0000
1110
0000
0000
0000
0000
,
0000
1001
0000
0000
0000
1001
0000
0000
0000
1001
0000
0000
0000
1001
0000
0100
,
0000
1001
0000
0010
0000
1011
0000
0000
0000
0000
0000
1101
0000
0000
0000
0000
,
0000
1011
0000
0000
0000
0110
0000
0000
0000
0110
0000
1001
0000
0110
0000
1001
,
0000
0110
0000
1001
0000
1000
0100
1000
0100
0010
0100
0001
0010
0100
0010
0001
,
0010
0100
1011
0100
0001
1000
0100
0010
1000
0010
0001
0100
0010
0001
0010
0100
,
0001
0010
0001
0100
0010
1000
0100
0010
1000
0100
0010
0001
0010
0100
0010
0001
,
0100
0010
1000
0100
0010
0100
0001
0010
1000
0100
0010
0100
0001
0010
0100
1000
,
0100
0001
0100
1000
0001
0010
1101
0000
0000
0000
0111
0000
0000
0000
1110
0000
,
0000
0000
1101
0001
0010
0100
1000
0010
0100
0010
0001
1000
0100
0010
0001
0100
,
1000
0100
0010
0001
0010
0100
0010
0100
1000
0100
0010
0001
0010
0100
0010
0001
,
0010
1000
0100
1000
0100
0010
1000
0100
0001
0010
1000
0100
0010
0001
0100
0001
,
0100
1010
1000
1001
1000
0101
0000
0010
0000
0110
0000
0100
0000
0110
0000
0000
,
0000
0110
0000
0000
0000
0000
0000
0001
0000
0010
0000
0100
0000
0101
0000
0010
,
0000
1010
0000
0100
0000
0011
0000
0001
0000
0000
0000
1000
0000
0001
0000
0000
,
0000
0100
0000
0000
0000
0001
0000
0010
0000
1000
0000
0100
0000
0001
0000
0010
,
0000
1000
0000
0000
0000
0001
0000
0010
0000
0000
0000
0100
0000
1000
0000
0000
,
0000
0100
0000
0000
0000
0001
0000
0010
0000
0110
0000
1000
0000
0110
0000
0001
,
0000
0110
0000
1000
0000
0110
0000
0010
0000
1100
0000
0100
0000
0011
0000
0010
,
0000
0110
0000
1000
0000
0110
0000
0001
0000
0110
0000
1000
0000
0110
0000
0001
,
0000
0011
0000
0001
0000
0110
0000
1000
0000
0110
0000
1000
0000
1010
0000
0100
,
0000
0101
0000
0000
0000
0101
0000
0010
0000
1010
0000
0100
0000
1010
0000
0100
,
0000
0110
0000
0000
0000
1100
0000
0001
0000
0110
0000
0001
0000
0110
0000
0001
,
0000
0011
0000
0000
0000
0110
0000
0001
0000
1001
0000
0100
0000
0110
0000
1000
,
0000
0110
0000
0000
0000
0110
0000
0010
0000
0110
0000
0001
0000
0110
0000
0100
,
0000
1100
0000
0000
0000
0110
0000
0100
0000
0110
0000
1000
0000
0110
0000
0010
,
0000
0101
0001
1001
0001
0101
0000
0100
0000
0110
0000
0100
0000
0110
0000
0100
,
0000
1100
0000
0010
0000
0011
0000
0010
0000
0110
0000
1000
0000
0110
0000
0001
,
0000
1010
0000
0110
0000
2001
0000
0110
0000
0101
0000
0110
0000
0011
0000
0110
,
0000
0101
0000
0011
0000
3112
0000
1010
0000
1100
0000
1010
0000
1100
0000
0110
,
0000
1010
0000
0110
0000
2113
0000
0110
0000
0101
0000
0011
0000
0110
0000
0011
,
0000
0110
0000
0011
0000
3112
0000
1010
0000
1100
0000
1100
0000
1100
0000
0110
,
0000
1010
0000
0110
0000
2113
0000
0110
0000
0111
0000
0110
0000
0111
0000
0110
,
0000
0111
0000
0110
0000
3112
0000
0110
0000
1110
0000
1100
0000
1110
0000
1100
,
0000
1110
0000
0110
0000
1113
0000
0000
0000
0000
0000
0000
0000
0000
0000
0000
;
